Your download link is at the very bottom of the page... always.



Processed through Paypal
No account required.


Donate Bitcoin to this wallet:
1KkUMXvQ2ko3xcJkzitB7WYgoW6m79WFfm
Donate Ethereum to this wallet:
0x40E56922F43637224935CDC35e2c96E0392A8505
Donate Litecoin to this wallet:
LLYAFEyqjH69gkyCEpRjXNyedRCWrVChfL

Buy our over-priced crap to help keep things running.
Take No CrapwareOG Dad CapNo Password


Join our Facebook groupFollow us on TwitterFollow us on InstagramOur RSS FeedJoin us on TikTokJoin us on LinkedIn


 Home » OlderGeeks.com Freeware Downloads » Video/Audio Editing, Tools and Players » Utilities, Converters and Players » CUETools v2.2.6   
File - Download CUETools v2.2.6
Description

Always scroll to the bottom of the page for the main download link.
We don't believe in fake/misleading download buttons and tricks. The link is always in the same place.


CUETools v2.2.6

A free tool for lossless audio/CUE sheet format conversion.

The goal is to make sure the album image is preserved accurately. A lossless disc image must be lossless not only in preserving contents of the audio tracks, but also in preserving gaps and CUE sheet contents. Many applications lose vital information upon conversion, and don't support all possible CUE sheet styles. For example, foobar2000 loses disc pre-gap information when converting an album image, and doesn't support gaps appended (noncompliant) CUE sheets.





The distribution comes with CUERipper, an easy-to-use tool for ripping CDs to audio files plus cue sheets, with optional native or EAC-style logging. Like CUETools, it checks the rip against the AccurateRip and CUETools databases. It also contributes to the CUETools database.

Supported formats
Supports WAV, FLAC, APE, lossyWAV, ALAC, TTA, and WavPack audio input/output. Audio must be 16-bit, 44.1kHz samples stereo (i.e. CD PCM). Supports every CUE sheet style (embedded, single file, gaps appended/prepended/left out). It is also possible to process a set of audio files in a directory without a CUE sheet, or use a RAR archive as an input without unpacking it.

Use cases
• Convert a single-file album image with CUE sheet to a file-per-track album image
• Convert a single-file album image with CUE-sheet-per-album to a single-file album image with CUE-sheet-per-track album image (feature request)
• Convert a file-per-track album image with CUE sheet to a single file album image
• Convert a file-per-track album image without a CUE sheet to a single file album image with simple CUE sheet
• Convert an album image from one lossless codec to another, preserving CUE sheet structure
• Verify a (possibly non offset-corrected) album image against AccurateRip database
• Apply offset correction to a rip made without offset correction
• Prepare an album image for burning with software, which does not handle drive write offsets, by applying offset
• Extract an album image directly from a RAR archive without unpacking it, and save it in a different format
• Fix filenames in a CUE sheet, if the files were renamed or converted to a different format.
• Compress to lossyWav, creating a lossy output + correction file.
• Convert a HDCD image to 24-bit / 20-bit / lossyWav 16-bit audio files (irreversible).
• Convert an album image with minor audio errors to one without errors, using correction files in the CUETools Database.

AccurateRip support
Since version 1.9.2, CUETools can verify album images using the AccurateRip database. ARCue and TripleFLAC were an inspiration. The unique feature of CUETools AccurateRip verification is offset detection. A rip that was made without offset correction can still be verified against the database; the offset can be found and corrected.

Sample log:
[AccurateRip ID: 000a800a-00305be0-3e0c9905] found.
Track [ CRC | V2 ] Status
01 [6cc4879f|f78bc58b] (00+00/11) No match
02 [fa12db35|5667d128] (00+00/11) No match
03 [602a5adc|4e7f35bf] (00+00/11) No match
04 [ea072e18|65b2f081] (00+00/11) No match
05 [d152bb74|908e8e26] (00+00/11) No match
Offsetted by -6:
01 [c9dde5d4] (02/11) Accurately ripped
02 [5e163745] (02/11) Accurately ripped
03 [ab6e75ee] (02/11) Accurately ripped
04 [6a44c49e] (02/11) Accurately ripped
05 [35705594] (02/11) Accurately ripped
Offsetted by 42:
01 [d8ff4b37] (07/11) Accurately ripped
02 [08ef0a3a] (07/11) Accurately ripped
03 [f3d2920f] (07/11) Accurately ripped
04 [eabd6e74] (07/11) Accurately ripped
05 [b617c805] (07/11) Accurately ripped





Changes:
CUETools 2.2.6 (2024-06-28)
Update MAC_SDK from 10.37 to 10.74
EACPlugin: Allow coverart search to be stopped
Fix C2 mode for further drives:
LG GH24NSD5, LITEON DH-20A4P
Preserve encoding of localized EAC log files
Add setting for UTF-8-BOM
settings.txt: WriteUTF8BOM
The setting is enabled by default, to preserve previous behavior
CUETools, Correct filenames: Support UTF-8
CUERipper: Fix incorrect TOC entry of first track
CUERipper: Add setting to force ReadCDCommand
settings.txt: 0 (ReadCdBEh), 1 (ReadCdD8h), 2 (Unknown/AutoDetect)
Default: 2
Add WavPack 5.7.0 encoder multithreading support
Update WavPack from 5.6.0 to 5.7.0
Avoid short HTOA files
CUERipper: Detect too large album art earlier


Continue below for the main download link.


Downloads Views Developer Last Update Version Size Type Rank
3,845 6,514 CUETools <img src="https://www.oldergeeks.com/downloads/gallery/thumbs/CUETools2_th.png"border="0"> Jun 30, 2024 - 12:11 2.2.6 3.94MB ZIP 5/5, out of 43 Votes.
File Tags
CUETools  v2.2.6  
      
Whoa! Slow down there, Speedy.
You gotta read this before you download:

We got no ads, no fake download buttons and no crapware here.
This website has lived for 15 years solely through donations.
We aren't stopping you from downloading without donating
but the site runs on the "Honor System". If your momma
raised you to be honorable, do the right thing and donate.
Make your momma proud!

Thank you! -Randy & Deanna (The Older Geeks)
Missouri Ozarks, USA

Monthly operating costs = $750
Donations cover operating costs first
then are set aside for future upgrades and/or
handed-over to Deanna for new shoes.

PayPal or Credit/Debit
Or

Or

Or
Send a check payable to Home Computer Repair LLC, 208 E. Water St. Mount Vernon, MO 65712

Recent Super Donors ($50+)
Thanks, Spirit Works
Thanks, Herbert
Thanks, Harold
Thanks, Richard

Recent Donors
Thanks, Angela
Thanks, Michael
Thanks, Michael
Thanks, William
Thanks, Edward
Thanks, Stephen
Thanks, T-Square PC Repair
Thanks, Eric
Thanks, Dolas
Thanks, John

→ Download Your File ←


Click to Rate File     Share it on Twitter →


OlderGeeks.com Copyright (c) 2024